www.TutorBit.org

Регистрация
TutorBit.org на facebook TutorBit.org RSS
ГЛАВНАЯ » СКЛАД » ВИДЕОУРОКИ » Web, Сайтостроение

Видеоурок своими руками

Добавлено: 26.10.2013, 15:09
Скачать Видеоурок своими руками


Этот видеокурс будет Вам особенно полезен, если: 

Вы ведёте собственный блог и Вам нужно более тесное взаимодействие с аудиторией; 
Вы собираетесь создать собственный обучающий видеокурс; 
Вы хотите добавлять на сайт не только текстовые посты, но и наглядные видео. 

 



Изучив видеокурс «Видеоурок своими руками», Вы сможете создать: 

Собственный видеокурс (мультимедийный информационный продукт); 
Рекламные ролики для подписной страницы; 
Мощные продающие видео; 
Обучающие видеоуроки для своей аудитории; 
Наглядные видео для описания каких-то сложных или технических моментов. 

В курсе рассмотрен личный и многолетний опыт авторов-практиков, создавших такие бестселлеры как: 
«Бизнес-Старт» и «Киберсант-Вебмастер» (Никита Королев) «Киберсант-Оборона», «Киберсант-Пользователь», «Социальные Сети. Все моменты» (Михаил Зуев) И множества (более сотни!) видеоуроков и промо-роликов… Всего 7 уроков, в которых затронуты только самые важные и необходимые моменты ничего лишнего. 

 

 



Содержание: 
1.Зачем вам нужна Camtasia Studio? 
2.Как создать качественное видео? 
3.Какое оборудование вам необходимо? 
4.Как создать слайды в Photoshop? 
5.Как настроить Camtasia Recorder? 
6.Как обработать снятое видео? 
7.Как экспортировать (сохранить) полученное видео? 

 

 



Файлы примеров: отсутствуют 
Формат видео: MP4 
Видео: Кодек: AVC Кодек/ID: avc1 Размеры изображения: 800 x 600 (4:3) Частота кадров: 30.000 fps Размер потока: 1.66 MiB (49%) Битрейт: 53.7 Kbps 
Аудио: Кодек: AAC Кодек/ID: 40 Частота дискретизации: 44.1 KHz Каналов: 2 channels Битрейт: 53.6 Kbps Размер потока: 1.65 MiB (49%) 

Скриншоты: 

 

 

 
Год выпуска: 2012 
Автор: Михаил Зуев и Никита Королев 
Продолжительность: 1:30:41 часов. 
Тип раздаваемого материала: Видеокурс 
Язык: Русский 

Поделиться в соц. сетях:


Скачивать файлы с сервера могут только зарегистрированные пользователи.
[ Регистрация | Вход ]


Скачать Видеоурок своими руками
Видеоурок своими руками
Просмотров: 1413
Скачали: 81
Размер материала: 116 MB
Дата добавления: 26.10.2013

Правообладателям


Материал предоставлен для ознакомления!
Применение содержимого на практике только на Ваш страх и риск.

Поставьте, пожалуйста, свою оценку:
  0.0/0
Категория: Web, Сайтостроение | Теги: видеоурок, Rus), своими, (2012, руками Просмотров: 1413 | Загрузок: 81

Рекомендуем:

ВНИМАНИЕ!!!

Вы можете скачать бесплатно"Видеоурок своими руками", если у Вас активирован статус "Premium" или "Gold" пользователя.
Если Вы являетесь автором материала и его размещение на сайте произошло без Вашего согласия - обратитесь к администрации сайта и с Вами свяжутся в ближайшее время для урегулирования ситуации.

Ваши комментарии очень важны для развития проекта!!!

Всего комментариев: 0
Добавлять комментарии могут только зарегистрированные пользователи.
[ Регистрация | Вход ]